#TITLE:God is a Girl;
#SUBTITLE:;
#ARTIST:Groove Coverage;
#TITLETRANSLIT:;
#SUBTITLETRANSLIT:;
#ARTISTTRANSLIT:;
#CREDIT:;
#BANNER:God is a Girl_banner.jpg;
#BACKGROUND:God is a Girl_bg.jpg;
#LYRICSPATH:;
#CDTITLE:PsYKoTx_title.jpg;
#MUSIC:God is A Girl.mp3;
#OFFSET:-0.100;
#SAMPLESTART:156.500;
#SAMPLELENGTH:20.000;
#SELECTABLE:YES;
#BPMS:0.000=142.000;
#STOPS:;
#BGCHANGES:;
// cache tags:
#FIRSTBEAT:7.000;
#LASTBEAT:508.000;
#SONGFILENAME:Songs/Music V.I.P ^_^/God is a Girl/1-05 God is A Girl.sm;
#HASMUSIC:1;
#HASBANNER:1;
#MUSICLENGTH:220.107;
// end cache tags

//---------------dance-single - ----------------
#NOTES:
     dance-single:
     :
     Medium:
     9:
     0.717,0.923,0.459,1.000,0.002,595.000,101.000,408.000,0.000,0.000:
0000
0000
0000
0000
,
0000
0000
0000
2000
,
3020
0000
0230
0302
,
0023
0000
0030
0200
,
0320
0000
2030
3200
,
0320
0000
0030
0002
,
0203
0000
2300
3200
,
0302
0000
0003
2000
,
3020
0000
0230
0302
,
0023
0000
0030
2000
,
3020
0000
0230
0320
,
2030
0000
3000
0002
,
0023
0000
0032
2003
,
3020
0000
0030
2000
,
3200
0302
0203
2300
,
3020
0000
0030
0200
,
0302
0023
0230
0320
,
2030
0000
0000
0000
,
3000
0000
0000
0000
0002
0203
0320
0000
,
2030
0000
3000
0200
0320
0032
0023
0000
,
0230
0000
0300
0000
2000
3002
0023
0032
,
0000
0203
0300
0000
0002
0203
0320
2030
,
0000
3002
0000
0003
0200
0320
2030
0000
,
3200
0000
0300
2000
3002
0023
0230
0000
,
0320
0000
0030
0000
0002
0203
0320
2030
,
0000
3020
0030
0000
0200
0302
0023
0230
,
0000
0320
0000
0030
0002
0203
0320
0000
,
2030
0000
3000
0020
2030
3200
0302
0000
,
0203
0000
0300
0000
2000
3200
0320
0032
,
0000
0203
0300
0000
0002
0203
0320
2030
,
0000
3020
0030
0000
0200
0302
0023
0000
,
0230
0000
0300
2000
3200
0320
0230
0000
,
2300
0000
3000
0000
0002
0203
2300
3200
,
0000
0302
0003
0000
2000
3020
0032
0023
,
0000
2030
0000
0000
3000
0000
0000
0000
,
0000
0000
1000
1000
0010
0010
0100
0001
,
2000
3000
2000
3000
2000
3000
0200
2300
,
3002
0003
0002
0003
0002
0003
2000
3020
,
0230
0300
0200
0300
0200
0300
0002
2003
,
3020
0030
0100
0100
0001
0001
1000
0001
,
0200
0300
0200
0300
0200
0300
0020
2030
,
3002
0003
0002
0003
0002
0003
0200
0320
,
2030
3000
2000
3000
2000
3000
0200
0320
,
0032
0003
0100
0100
0010
0010
1000
0001
,
2002
3003
2002
3003
2002
3003
0100
0001
,
0022
0033
0022
0033
0022
0033
0001
1000
,
2020
3030
2020
3030
2020
3030
0100
0001
,
0010
0000
0100
0100
1000
1000
0010
1000
,
0202
0303
0202
0303
0202
0303
0001
1000
,
2200
3300
2200
3300
2200
3300
1000
0100
,
0022
0033
0022
0033
0022
0033
0001
1000
,
0010
0000
0100
0100
0001
0001
1000
0100
,
0022
0033
0022
0033
0022
0033
0011
0100
,
2020
3030
2020
3030
2020
3030
1010
0001
,
0220
0330
0220
0330
0220
0330
0110
0001
,
2200
3300
1000
1000
0010
0010
0100
0001
,
2002
3003
2002
3003
2002
3003
0001
1000
,
2020
3030
2020
3030
2020
3030
0010
1000
,
2200
3300
2200
3300
2200
3300
1000
0010
,
0202
0303
0100
0100
0010
0010
1000
0100
,
0002
0003
0002
0003
0002
0003
0001
0100
,
2000
3000
2000
3000
2000
3000
1000
0010
,
0200
0300
0200
0300
0200
0300
0100
0001
,
0020
0030
0001
0001
0010
0010
0001
1000
,
0200
0300
0200
0300
0200
0300
0100
1000
,
0002
0003
0002
0003
0002
0003
0001
1000
,
0200
0300
0200
0300
0200
0300
0100
1000
,
0020
0030
0100
0001
2000
3200
0320
0000
,
0230
0000
0300
2000
3002
0023
0230
0000
,
0320
0000
0030
0000
0002
0203
2300
3020
,
0000
0230
0300
0002
0203
0000
0320
0000
,
2030
0000
3000
0000
0200
0302
0023
0000
,
0230
0000
0300
2000
3200
0320
0032
0000
,
0023
0000
0030
0002
0023
2030
3020
0032
,
0000
0203
0300
0020
2030
0000
3200
0000
,
0320
0000
0000
0000
0030
0000
0000
0000
0002
0003
0002
0000
2003
0000
3020
0000
,
0000
0230
0302
0023
2030
0000
3020
0032
,
0000
0003
0000
0000
0200
0302
0023
0230
,
0000
2300
3002
0203
0320
0000
2030
3020
,
0000
0000
0030
0000
2000
3200
0302
0023
,
0000
0230
0300
0002
0203
0000
0320
2030
,
0000
3000
0000
0200
0302
0023
0230
2300
,
0000
3020
0030
0200
0302
0000
0020
0030
,
2000
0000
3003
0000
,
0000
0000
0000
0000
2000
3002
0023
0000
,
0230
0000
0300
2000
3020
0230
0302
0000
,
0023
0000
0030
0000
0002
2003
3020
0230
,
0000
0320
0030
0000
2000
3002
0023
0032
,
0000
0023
0000
0030
0200
2300
3020
0000
,
0230
0000
0300
0002
0203
0320
2030
0000
,
3020
0000
0030
0000
0200
0302
0023
0230
,
0000
0320
0030
0000
0002
0203
0320
2030
,
0000
3020
0000
0030
2000
3200
0320
0031
,
2002
3003
0000
0020
2030
3200
0320
0030
,
2200
3300
0000
0000
0002
0203
0320
2030
,
0100
3020
0030
0000
0020
2030
3002
0023
,
0100
0032
0000
0003
2000
3002
0023
0130
,
0110
0000
0000
0000
1010
0000
0000
0101
,
0101
0000
0000
0000
0011
0000
0000
1100
,
1100
1010
0011
0101
,
1100
0000
1100
0000
1100
0000
1100
0000
1100
0000
0001
0010
0100
0000
1001
0000
,
1001
0000
1000
1000
0010
0010
0100
0001
,
0011
0000
1100
0000
0011
0000
0001
1000
,
1010
0000
0101
0000
1010
0000
1000
0001
,
0011
0000
0101
0000
0011
0000
0001
0100
,
0110
0000
0001
0001
0010
0010
0100
1000
,
1100
0000
0101
0000
1100
0000
1000
0001
,
0101
0000
1100
0000
0101
0000
0001
1000
,
1010
0000
0011
0000
1010
0000
1000
0001
,
0012
0000
1000
1000
0010
0010
0100
1003
,
0110
0000
0011
0000
1010
0000
0100
0001
,
0011
0000
1010
0000
1100
0000
0010
0001
,
0101
0000
1100
0000
1010
0000
0001
1000
,
0021
0000
0001
0001
0100
0100
0001
1030
,
0110
0000
0011
0000
1010
0000
0100
0001
,
0011
0000
0101
0000
1010
0000
0010
1000
,
1100
0000
0011
0000
1010
0000
0010
1000
,
0210
0000
0010
0010
1000
1000
0001
1300
,
2100
3000
2000
3000
2000
3000
0001
0100
,
0002
0003
0002
0003
0002
0003
1000
0010
,
0200
0300
0200
0300
0200
0300
0100
0001
,
0020
0030
0001
0001
0010
0010
0100
1000
,
0200
0300
0200
0300
0200
0300
1000
0001
,
2000
3000
2000
3000
2000
3000
0100
0010
,
0002
0003
0002
0003
0002
0003
1000
0100
,
0020
0030
0001
0001
0010
0010
0100
1000
,
0002
0000
0000
0000
,
0003
0000
0000
0000
;

//---------------dance-single - ----------------
#NOTES:
     dance-single:
     :
     Hard:
     11:
     0.966,1.000,1.000,1.000,0.039,815.000,408.000,265.000,0.000,0.000:
0000
0000
0000
0000
,
0000
0000
0000
0000
0000
0000
2000
3000
,
0022
0000
0000
0030
0200
0300
0020
0033
,
2020
0000
0000
0000
0030
0000
0200
3300
,
0022
0000
0000
0030
2000
3000
0200
0303
,
0220
0000
0000
0000
0030
0000
0002
0303
,
2020
0000
0000
0030
0002
0003
0200
3300
,
0022
0000
0000
0000
0003
0000
2000
3030
,
0202
0000
0000
0300
0020
0030
2000
3003
,
0220
0000
0000
0000
0030
0000
0002
0303
,
0022
0000
0000
0030
0200
0300
2000
3003
,
0220
0000
0000
0000
0300
0000
2000
3030
,
2200
0000
0000
0300
0002
0003
0200
3300
,
0022
0000
0000
0000
0030
0000
2000
3003
,
0220
0300
2000
3000
0200
0300
2000
3030
,
0022
0000
0000
0000
0030
0000
0200
0303
,
2002
0003
0020
0030
0200
0300
0020
3030
,
0202
0000
0000
0000
,
0303
0000
0000
0000
0002
0203
0320
0000
,
1030
0100
0001
0100
0010
0001
0010
0001
,
0100
1000
0010
0100
1000
0001
0010
0001
,
1000
0100
0010
1000
0001
0100
0010
1000
,
0100
0001
0010
1000
0100
0010
1000
0001
,
0100
0010
1000
0100
0001
0010
0100
1000
,
0010
0001
0100
1000
0001
0100
0010
1000
,
0100
0010
0100
0001
0100
0001
0010
0100
,
1000
0010
0100
1000
0001
0100
0010
0001
,
1100
0010
0001
0110
1000
0100
0001
0010
,
1100
0000
0010
0000
1000
0000
0110
0000
1000
0000
0110
0000
0010
1100
0001
0000
,
1100
0100
0010
1100
0001
0100
0010
1000
,
0011
0000
0100
0000
0001
0000
1100
0000
0100
0000
0011
0000
0010
0101
1000
0000
,
0101
0010
0100
1010
0100
0010
0100
0010
,
1001
0000
0010
0000
0100
0000
0011
0000
0001
0000
0110
0000
1000
0110
0001
0000
,
0011
0001
0010
0110
1000
0010
0001
0010
,
0101
0000
1000
0000
0010
0000
1100
0000
0100
0000
1010
0000
0100
0011
2000
0000
,
3000
0000
1100
1100
1010
1010
0101
0011
,
2200
0000
3300
0000
2200
0000
3300
0000
2200
0000
3300
0000
2200
3300
2020
3030
,
0202
0000
0303
0000
0202
0000
0303
0000
0202
0000
0303
0000
0202
0303
0022
0033
,
0220
0000
0330
0000
0220
0000
0330
0000
0220
0000
0330
0000
0202
0303
2020
3030
,
0022
0033
0101
0101
0011
0011
1100
1010
,
2200
0000
3300
0000
2200
0000
3300
0000
2200
0000
3300
0000
0220
0330
0022
0033
,
2002
0000
3003
0000
2002
0000
3003
0000
2002
0000
3003
0000
2200
3300
0022
0033
,
0202
0000
0303
0000
0202
0000
0303
0000
0202
0000
0303
0000
0202
0303
0220
0330
,
2020
3030
1100
1100
0011
0011
0101
1010
,
1001
0010
1001
0010
1001
0010
0101
1010
,
0011
1000
0011
1000
0011
1000
0101
0011
,
1010
0001
1010
0001
1010
0001
0110
1010
,
0022
0033
0101
0101
1010
1010
1100
0011
,
0101
1000
0101
1000
0101
1000
0101
0011
,
1100
0001
1100
0001
1100
0001
1100
0110
,
0011
0100
0011
0100
0011
1000
0101
0011
,
2020
3030
1100
1100
1010
1010
0011
0110
,
0011
1000
0011
0100
0011
1000
0011
0110
,
1010
0001
1010
0100
1010
0001
1010
1100
,
0110
0001
0110
1000
0110
0001
0110
0101
,
1100
0001
1001
1001
0110
0110
0101
1010
,
1100
0001
1100
0010
1100
0001
0110
0011
,
1010
0100
1010
0001
1010
0100
0011
1010
,
1100
0001
1100
0010
1100
0001
1100
0011
,
0101
0010
1100
1100
1010
1010
0101
0011
,
0202
0303
0202
0303
0202
0303
0101
0110
,
2200
3300
2200
3300
2200
3300
1010
0011
,
0220
0330
0220
0330
0220
0330
1100
1010
,
0022
0033
0101
0101
1010
1010
1100
0011
,
0220
0330
0220
0330
0220
0330
1100
1010
,
0202
0303
0202
0303
0202
0303
0011
1010
,
2200
3300
2200
3300
2200
3300
0101
0011
,
0220
0000
0330
0000
0101
0000
0101
0000
2020
3030
0220
0330
0022
0000
0000
0033
,
0110
1000
0010
1100
0001
0010
0100
0001
,
0110
0000
1000
0000
0100
0000
0011
0000
0001
0000
0110
0000
1000
0101
0010
0000
,
1100
0010
0001
1010
0100
1000
0100
0001
,
0110
0000
0001
0000
1000
0000
0110
0000
0001
0000
0110
0000
1000
0110
0001
0000
,
0101
0010
1000
0101
0010
1000
0100
0010
,
1001
0000
0100
0000
0010
0000
1010
0000
0100
0000
0101
0000
0010
1100
0001
0000
,
1010
0100
0001
0110
1000
0001
0100
1000
,
1010
0000
0001
0000
0100
0000
0110
0000
0001
0000
0011
0000
1000
0110
0002
0000
,
0000
0203
0302
0023
2030
0000
3020
0032
,
0000
0003
0000
0000
0200
0302
0023
0230
,
0000
2300
3002
0203
0320
0000
2030
3020
,
0000
0000
0030
0000
2000
3200
0302
0023
,
0000
0230
0300
0002
0203
0000
0320
2030
,
0000
3000
0000
0200
0302
0023
0230
2300
,
0000
3020
0030
0200
0302
0000
0020
0030
,
2000
0000
3003
0000
,
0000
0000
0000
0000
2000
3002
0023
0000
,
0130
1000
0010
1000
0010
0100
0001
0100
,
0010
0001
0100
1000
0001
1000
0010
0100
,
0001
0010
1000
0001
1000
0001
0010
0001
,
1000
0010
0100
1000
0100
1000
0010
1000
,
0100
0010
1000
0001
0100
0010
1000
0100
,
0010
1000
0100
0001
0100
0001
0010
0100
,
1000
0010
0100
1000
0001
0100
0010
1000
,
0100
0010
0100
0001
1000
0100
0010
0001
,
1001
0100
0001
0010
1000
0100
0010
0001
,
1100
0010
1000
0100
0001
0100
0010
1100
,
0110
0001
1000
0100
0010
1000
0001
0010
,
1100
0001
0010
0100
1000
0001
0010
0011
,
0110
1000
0001
0100
1010
0100
0001
1100
,
0101
0010
1000
0100
0011
0100
0001
1100
,
1001
0010
0100
0001
1010
0001
1000
0100
0011
1000
0100
0010
0101
1000
0001
0010
,
1100
0000
1001
0000
0011
0000
1001
0000
0101
0000
0101
0110
1010
0000
1001
0000
,
1001
0000
1100
1100
1010
1010
0101
0011
,
0101
0010
1100
0010
0101
0010
0101
0011
,
1010
0100
0011
0100
1010
0100
0011
1100
,
1010
0001
1100
0001
1010
0001
1100
0110
,
0022
0033
0101
0101
1010
1010
1100
0011
,
1100
0010
0101
0010
1100
0010
0101
1010
,
0011
0100
1010
0100
0011
0100
1010
0011
,
0101
1000
0011
0100
1010
0001
1100
0001
,
0022
0033
1100
1100
1010
1010
0110
1010
,
1001
0100
0011
0100
1010
0001
1100
1010
,
0011
0100
1010
0001
1100
0001
1010
0110
,
0101
0010
1100
0001
1010
0100
0011
1000
,
0022
0033
0101
0101
1001
1001
1100
0101
,
1001
0100
0011
0100
1010
0001
1100
0110
,
0011
1000
0101
0010
1100
0001
1010
0011
,
1100
0010
0101
1000
0011
0100
1010
0011
,
0220
0330
1001
1001
0011
0011
1010
0011
,
2200
3300
2200
3300
2200
3300
1010
0011
,
0202
0303
0202
0303
0202
0303
0011
1010
,
0220
0330
0220
0330
0220
0330
1100
0011
,
0220
0330
0101
0101
0011
0011
1100
1010
,
0220
0330
0220
0330
0220
0330
0101
0011
,
2200
3300
2200
3300
2200
3300
0110
1010
,
0202
0303
0202
0303
0202
0303
1100
1010
,
0022
0033
1100
1100
1010
1010
0101
0011
,
2200
0000
0000
0000
,
3300
0000
0000
0000
;

//---------------dance-single - ----------------
#NOTES:
     dance-single:
     :
     Challenge:
     12:
     1.000,1.000,1.000,1.000,0.534,1041.000,360.000,235.000,0.000,0.000:
0000
0000
0000
0000
,
0000
0000
0000
0000
0000
0000
2000
3000
,
0022
0000
0000
0030
0200
0300
0020
0033
,
2020
0000
0000
0000
0030
0000
0200
3300
,
0022
0000
0000
0030
2000
3000
0200
0303
,
0220
0000
0000
0000
0030
0000
0002
0303
,
2020
0000
0000
0030
0002
0003
0200
3300
,
0022
0000
0000
0000
0003
0000
2000
3030
,
0202
0000
0000
0300
0020
0030
2000
3003
,
0220
0000
0000
0000
0030
0000
0002
0303
,
0022
0000
0000
0030
0200
0300
2000
3003
,
0220
0000
0000
0000
0300
0000
2000
3030
,
2200
0000
0000
0300
0002
0003
0200
3300
,
0022
0000
0000
0000
0030
0000
2000
3003
,
0220
0300
2000
3000
0200
0300
2000
3030
,
0022
0000
0000
0000
0030
0000
0200
0303
,
2002
0003
0020
0030
0200
0300
0020
3030
,
0202
0000
0000
0000
,
0303
0000
0000
0000
0002
0203
0320
0000
,
1030
0100
0001
0100
0010
0001
0010
0001
,
0100
1000
0010
0100
1000
0001
0010
0001
,
1000
0100
0010
1000
0001
0100
0010
1000
,
0100
0001
0010
1000
0100
0010
1000
0001
,
0100
0010
1000
0100
0001
0010
0100
1000
,
0010
0001
0100
1000
0001
0100
0010
1000
,
0100
0010
0100
0001
0100
0001
0010
0100
,
1000
0010
0100
0001
1000
0100
0010
0001
,
1100
0000
0001
0100
0010
0000
0110
1000
0001
0000
1000
0100
0010
0001
0100
0010
,
1100
0000
0010
1000
0100
0000
0110
0001
1000
0000
0110
0001
1000
0101
0010
0001
,
1100
0000
0010
1000
0100
0000
0101
0010
1000
0000
0010
1000
0100
0010
0001
1000
,
0011
0000
0100
1000
0010
0000
0101
1000
0010
0000
0011
0100
1000
0110
0001
1000
,
0101
0000
0010
0001
0100
0000
1010
0100
0001
0000
1000
0100
0010
0001
0100
0010
,
1001
0000
0100
0001
0010
0000
1010
0100
0001
0000
0110
1000
0010
0101
1000
0100
,
0011
0000
0001
0100
0010
0000
0110
0001
1000
0000
0010
1000
0100
0000
1000
0010
,
0101
0000
0010
1000
0100
0000
0101
1000
0010
0000
0110
0001
0010
1100
0020
0000
,
0030
0000
1100
1100
1010
1010
0101
0011
,
2200
0000
3300
0000
2200
0000
3300
0000
2200
0000
3300
0000
2200
3300
2020
3030
,
0202
0000
0303
0000
0202
0000
0303
0000
0202
0000
0303
0000
0202
0303
0022
0033
,
0220
0000
0330
0000
0220
0000
0330
0000
0220
0000
0330
0000
0202
0303
2020
3030
,
0022
0033
0101
0101
0011
0011
1100
1010
,
1100
0010
0001
0100
0010
1000
0100
0010
0001
0100
0010
1000
0100
0010
0100
1000
,
0101
0010
1000
0100
0010
0100
1000
0001
0010
0100
0010
0001
0100
0010
1100
0010
,
0101
1000
0001
0100
0010
0100
0001
0010
1001
0100
0010
0001
0100
0010
0101
0010
,
1001
0100
0010
0001
0010
0100
1000
0100
0010
0001
0100
0010
1000
0100
0010
0001
0100
0010
1000
0100
0010
0001
0100
0010
,
1001
0010
1001
0010
1001
0010
0101
1010
,
0011
1000
0011
1000
0011
1000
0101
0011
,
1010
0001
1010
0001
1010
0001
0110
1010
,
0022
0033
0101
0101
1010
1010
1100
0011
,
0101
1000
0101
1000
0101
1000
0101
0011
,
1100
0001
1100
0001
1100
0001
1100
0110
,
0011
0100
0011
0100
0011
1000
0101
0011
,
2020
3030
1100
1100
1010
1010
0011
0110
,
0011
1000
0011
0100
0011
1000
0011
0110
,
1010
0001
1010
0100
1010
0001
1010
1100
,
0110
0001
0110
1000
0110
0001
0110
0101
,
2200
3300
1001
1001
0110
0110
0101
1010
,
1100
0001
0010
0100
1000
0100
0010
0001
0100
0010
0100
0001
0010
0100
0010
0001
,
1000
0100
0010
0100
1000
0010
0100
0010
1000
0001
0100
0010
1000
0010
0100
0001
,
0010
0100
1000
0100
0010
0001
0100
0010
1000
0010
0100
0010
1000
0100
0010
0001
,
1000
0100
0010
0001
1000
0100
0010
0001
1000
0100
0010
0001
0100
0010
1000
0010
0100
0001
0010
0100
0010
0001
1000
0010
,
0202
0303
0202
0303
0202
0303
0101
0110
,
2200
3300
2200
3300
2200
3300
1010
0011
,
0220
0330
0220
0330
0220
0330
1100
1010
,
0022
0033
0101
0101
1010
1010
1100
0011
,
0220
0330
0220
0330
0220
0330
1100
1010
,
0202
0303
0202
0303
0202
0303
0011
1010
,
2200
3300
2200
3300
2200
3300
0101
0011
,
0220
0000
0330
0000
0101
0000
0101
0000
2020
3030
0220
0330
0022
0000
0000
0033
,
0110
0000
1000
0100
0010
0000
1001
0100
0010
0000
1000
0010
0100
0001
0100
0010
,
1100
0000
0100
1000
0010
0000
1100
0001
0010
0000
1100
0000
1000
0101
0010
0001
,
1100
0000
0001
1000
0010
0000
1100
0001
0000
0000
0100
0001
0010
0100
1000
0100
,
0011
0000
0100
1000
0010
0000
1100
0001
0010
0000
1100
0010
1000
0110
0001
1000
,
0101
0000
0010
0001
0100
0000
0011
1000
0100
0000
0010
0001
0100
0010
0100
0001
,
1010
0000
0100
1000
0001
0000
0110
0001
1000
0000
0110
1000
0100
1010
0001
0100
,
1001
0000
0100
0001
0010
0000
0110
1000
0010
0000
0100
0001
0010
0100
1000
0001
,
1100
0000
0001
0010
0100
0000
1100
0010
0001
0000
0101
0000
1000
0101
0020
0000
,
0000
0230
0302
0023
2030
0000
3020
0032
,
0000
0003
0000
0000
0200
0302
0023
0230
,
0000
2300
3002
0203
0320
0000
2030
3020
,
0000
0000
0030
0000
2000
3200
0302
0023
,
0000
0230
0300
0002
0203
0000
0320
2030
,
0000
3000
0000
0200
0302
0023
0230
2300
,
0000
3020
0030
0200
0302
0000
0020
0030
,
2000
0000
3003
0000
,
0000
0000
0000
0000
2000
3002
0023
0000
,
0130
1000
0010
1000
0010
0100
0001
0100
,
0010
0001
0100
1000
0001
1000
0010
0100
,
0001
0010
1000
0001
1000
0001
0010
0001
,
1000
0010
0100
1000
0100
1000
0010
1000
,
0100
0010
1000
0001
0100
0010
1000
0100
,
0010
1000
0100
0001
0100
0001
0010
0100
,
1000
0010
0100
1000
0001
0100
0010
1000
,
0100
0010
0100
0001
1000
0100
0010
0001
,
1001
0100
0010
0001
0100
0010
1000
0100
0010
0001
0100
0010
1000
0100
0010
0001
,
1100
0010
0001
0100
0010
1000
0100
0010
0001
0100
0010
1000
0100
0010
1100
0001
,
0110
1000
0010
0100
0001
0100
0010
1000
0100
0010
0001
0100
0010
1000
0100
0010
,
1100
0001
0100
0010
0100
0001
1000
0100
0010
0100
1000
0001
1000
0100
0011
1000
,
0110
0001
0100
0010
1000
0100
0010
0001
1010
0100
0001
0010
1000
0001
1100
0010
,
0101
1000
0100
0010
0001
0010
0100
1000
0011
0100
0010
0001
0100
0010
1100
0010
,
1001
0100
0010
0001
0100
0010
1000
0100
0010
0100
1000
0001
0010
0100
0010
0001
0100
0010
0100
0001
0010
0100
1000
0100
,
0010
0001
0100
0010
1000
0100
0010
0001
1000
0100
0010
0100
1000
0010
0100
0010
1000
0100
0010
0001
0100
0010
1000
0100
,
1001
0000
1100
1100
1010
1010
0101
0011
,
0101
0010
1100
0010
0101
0010
0101
0011
,
1010
0100
0011
0100
1010
0100
0011
1100
,
1010
0001
1100
0001
1010
0001
1100
0110
,
0022
0033
0101
0101
1010
1010
1100
0011
,
1100
0010
0101
0010
1100
0010
0101
1010
,
0011
0100
1010
0100
0011
0100
1010
0011
,
0101
1000
0011
0100
1010
0001
1100
0001
,
0022
0033
1100
1100
1010
1010
0110
1010
,
1001
0100
0011
0100
1010
0001
1100
1010
,
0011
0100
1010
0001
1100
0001
1010
0110
,
0101
0010
1100
0001
1010
0100
0011
1000
,
0022
0033
0101
0101
1001
1001
1100
0101
,
1001
0100
0011
0100
1010
0001
1100
0110
,
0011
1000
0101
0010
1100
0001
1010
0011
,
1100
0010
0101
1000
0011
0100
1010
0011
,
0220
0330
1001
1001
0011
0011
1010
0011
,
2200
3300
2200
3300
2200
3300
1010
0011
,
0202
0303
0202
0303
0202
0303
0011
1010
,
0220
0330
0220
0330
0220
0330
1100
0011
,
0220
0330
0101
0101
0011
0011
1100
1010
,
0220
0330
0220
0330
0220
0330
0101
0011
,
2200
3300
2200
3300
2200
3300
0110
1010
,
0202
0303
0202
0303
0202
0303
1100
1010
,
0022
0033
1100
1100
1010
1010
0101
0011
,
2200
0000
0000
0000
,
3300
0000
0000
0000
;
